Dual Audios Dual Audios 300MB

xXx Return of Xander Cage 2017 Dual Audio Hindi 480p HDRip – 300mb

xXx: Return of Xander Cage (2017)
107 min|Action, Adventure, Thriller|January 20, 2017
5.2Rating: 5.2 / 10 from 47,600 users
Xander Cage is left for dead after an incident, though he secretly returns to action for a new, tough assignment with his handler Augustus Gibbons.
xXx: Return of Xander Cage Poster
xXx Return of Xander Cage 2017 Dual Audio Hindi 480p HDRip 300mb

General
Unique ID                   : 233784623847512415876188679450128751418 (0xAFE147DFEBF07B56887BEB81D8E71B3A)
Format                      : Matroska
Format version              : Version 4 / Version 2
File size                   : 329 MiB
Duration                    : 1 h 47 min
Overall bit rate            : 430 kb/s
Movie name                  : This Movie Download From @Www.ExtraDesiMovies.Com
Encoded date                : UTC 2017-05-06 03:22:15
Writing application         : mkvmerge v11.0.0 (‘Alive’) 64bit
Writing library             : libebml v1.3.4 + libmatroska v1.4.5

Video
ID                          : 1
Format                      : AVC
Format/Info                 : Advanced Video Codec
Format profile              : [email protected]
Format settings, CABAC      : Yes
Format settings, ReFrames   : 8 frames
Codec ID                    : V_MPEG4/ISO/AVC
Duration                    : 1 h 47 min
Bit rate                    : 364 kb/s
Width                       : 720 pixels
Height                      : 296 pixels
Display aspect ratio        : 2.40:1
Frame rate mode             : Constant
Frame rate                  : 23.976 (24000/1001) FPS
Color space                 : YUV
Chroma subsampling          : 4:2:0
Bit depth                   : 8 bits
Scan type                   : Progressive
Bits/(Pixel*Frame)          : 0.071
Stream size                 : 279 MiB (85%)
Title                       : This Movie Download From @Www.ExtraDesiMovies.Com
Writing library             : x264 core 148 r2638 7599210
Encoding settings           : cabac=1 / ref=8 / deblock=1:-1:-1 / analyse=0x3:0x113 / me=umh / subme=7 / psy=1 / psy_rd=1.00:0.00 / mixed_ref=1 / me_range=16 / chroma_me=1 / trellis=1 / 8x8dct=1 / cqm=0 / deadzone=21,11 / fast_pskip=1 / chroma_qp_offset=-2 / threads=9 / lookahead_threads=1 / sliced_threads=0 / nr=0 / decimate=1 / interlaced=0 / bluray_compat=0 / constrained_intra=0 / bframes=3 / b_pyramid=2 / b_adapt=1 / b_bias=0 / direct=1 / weightb=1 / open_gop=0 / weightp=2 / keyint=240 / keyint_min=23 / scenecut=40 / intra_refresh=0 / rc_lookahead=40 / rc=2pass / mbtree=1 / bitrate=364 / ratetol=1.0 / qcomp=0.60 / qpmin=10 / qpmax=69 / qpstep=4 / cplxblur=20.0 / qblur=0.5 / vbv_maxrate=62500 / vbv_bufsize=78125 / nal_hrd=none / filler=0 / ip_ratio=1.40 / aq=1:1.00
Default                     : Yes
Forced                      : No

Audio #1
ID                          : 2
Format                      : AAC
Format/Info                 : Advanced Audio Codec
Format profile              : HE-AAC / LC
Codec ID                    : A_AAC
Duration                    : 1 h 46 min
Bit rate                    : 32.0 kb/s
Channel(s)                  : 2 channels
Channel positions           : Front: L R
Sampling rate               : 48.0 kHz / 24.0 kHz
Frame rate                  : 23.438 FPS (1024 spf)
Compression mode            : Lossy
Delay relative to video     : 31 ms
Stream size                 : 24.3 MiB (7%)
Title                       : This Movie Download From @Www.ExtraDesiMovies.Com
Language                    : Hindi
Default                     : Yes
Forced                      : No

Audio #2
ID                          : 3
Format                      : AAC
Format/Info                 : Advanced Audio Codec
Format profile              : HE-AAC / LC
Codec ID                    : A_AAC
Duration                    : 1 h 46 min
Bit rate                    : 31.9 kb/s
Channel(s)                  : 2 channels
Channel positions           : Front: L R
Sampling rate               : 48.0 kHz / 24.0 kHz
Frame rate                  : 23.438 FPS (1024 spf)
Compression mode            : Lossy
Delay relative to video     : 31 ms
Stream size                 : 24.4 MiB (7%)
Title                       : This Movie Download From @Www.ExtraDesiMovies.Com
Language                    : English
Default                     : No
Forced                      : No

Text
ID                          : 4
Format                      : UTF-8
Codec ID                    : S_TEXT/UTF8
Codec ID/Info               : UTF-8 Plain Text
Duration                    : 1 h 36 min
Bit rate                    : 47 b/s
Count of elements           : 1109
Stream size                 : 33.5 KiB (0%)
Title                       : This Movie Download From @Www.ExtraDesiMovies.Com
Default                     : Yes
Forced                      : No