South Dubbed South Dubbed BluRay 1080p 720p

Yevadu (2014) 720p Blu-Ray x264 [ Dual – Audio ] [ Telugu 5.1 + Hindi ] -[Team EDM] ~1.45GB

Yevadu (2014)
165 min|Action, Thriller|January 11, 2014
5.1Rating: 5.1 / 10 from 4,994 users
A man seeks revenge from the killers of his lover, who were also responsible for the loss of his real face. Little does he know that his new face will bring bigger trouble for him.
 
General

Unique ID : 180823864664470844949414213971108637625 (0x880968D90952C505B0911AFC54232BB9)

Complete name : Yevadu (2014) 720p Blu-Ray x264 [ Dual – Audio ] [ Telugu 5.1 + Hindi ] -[Team EDM].mkv
GENRE: Action, Thriller

Format : Matroska
Format version : Version 4 / Version 2
File size : 1.45 GiB
Duration : 2h 48mn
Overall bit rate : 1 229 Kbps
Movie name : Yevadu (2014) 720p Blu-Ray x264 [Dual-Audio][Telugu 5.1 + Hindi] – Mafiaking – Team M2TV
Encoded date : UTC 2015-03-10 16:16:27
Writing application : mkvmerge v7.5.0 (‘Glass Culture’) 32bit built on Jan 4 2015 16:37:25
Writing library : libebml v1.3.1 + libmatroska v1.4.2

Video

ID : 1
Format : AVC
Format/Info : Advanced Video Codec
Format profile : [email protected]
Format settings, CABAC : Yes
Format settings, ReFrames : 4 frames
Codec ID : V_MPEG4/ISO/AVC
Duration : 2h 48mn
Bit rate : 875 Kbps
Width : 1 280 pixels
Height : 544 pixels
Display aspect ratio : 2.35:1
Frame rate mode : Constant
Frame rate : 24.000 fps
Color space : YUV
Chroma subsampling : 4:2:0
Bit depth : 8 bits
Scan type : Progressive
Bits/(Pixel*Frame) : 0.052
Stream size : 1.01 GiB (69%)
Title : EDM
Language : Telugu
Default : Yes
Forced : No

Audio #1

ID : 2
Format : AC-3
Format/Info : Audio Coding 3
Mode extension : CM (complete main)
Format settings, Endianness : Big
Codec ID : A_AC3
Duration : 2h 48mn
Bit rate mode : Constant
Bit rate : 128 Kbps
Channel(s) : 2 channels
Channel positions : Front: L R
Sampling rate : 48.0 KHz
Bit depth : 16 bits
Compression mode : Lossy
Stream size : 155 MiB (10%)
Title : EDM
Language : Hindi
Default : Yes
Forced : No

Audio #2

ID : 3
Format : AC-3
Format/Info : Audio Coding 3
Mode extension : CM (complete main)
Format settings, Endianness : Big
Codec ID : A_AC3
Duration : 2h 48mn
Bit rate mode : Constant
Bit rate : 224 Kbps
Channel(s) : 6 channels
Channel positions : Front: L C R, Side: L R, LFE
Sampling rate : 48.0 KHz
Bit depth : 16 bits
Compression mode : Lossy
Stream size : 271 MiB (18%)
Title : EDM
Language : Telugu
Default : No
Forced : No












DOWNLOAD LINK

UPTOBOX